ExHDMovies

Vedalam (2016) Hindi 720p Untouched WEB-HD AVC – MAXPRO ~ 1.82 GB

720pDual AudioSouth Dubbed

IMDB: /10 votes

Report error

 
 Format: MPEG-4
Format profile : Base Media / Version 2
Codec ID: mp42
File size: 1.82 GiB
Duration : 2h 13mn
Overall bit rate: 1 949 KbpsVideo
ID : 1
Format : AVC
Format/Info : Advanced Video Codec
Format profile : Main@L3.1
Format settings, CABAC : Yes
Format settings, ReFrames: 3 frames
Codec ID: avc1
Codec ID/Info: Advanced Video Coding
Duration : 2h 13mn
Bit rate : 1 820 Kbps
Width : 1 280 pixels
Height: 720 pixels
Display aspect ratio : 16:9
Frame rate mode : Constant
Frame rate : 25.000 fps
Color space : YUV
Chroma subsampling: 4:2:0
Bit depth : 8 bits
Scan type : Progressive
Bits/(Pixel*Frame): 0.079
Stream size : 1.70 GiB (93%)

Audio
ID: 2
Format : AAC
Format/Info : Advanced Audio Codec
Format profile: LC
Codec ID : 40
Duration  : 2h 13mn
Bit rate mode : Variable
Bit rate : 126 Kbps
Channel(s): 2 channels
Channel positions : Front: L R
Sampling rate: 44.1 KHz
Compression mode: Lossy
Stream size: 120 MiB (6%)

 



 Torrable 

No links available
No downloads available

Leave a Reply

Your email address will not be published. Required fields are marked *

Related movies

Watch Dragon ball super