ExHDMovies

One Missed Call (2008) 720p BluRay x264 [Dual-Audio][English DD 5.1 + Hindi 2.0] – Mafiaking – M2Tv ~841MB

720pDual Audio

IMDB: /10 votes

Report error

719_front.jpg

Ratings: 3.9/10

Genere: Horror, Mystery

General
Unique ID : 197292073327813532360030632630785973852 (0x946D1238EED5A6A18BB4930612A89E5C)
Complete name : One Missed Call (2008) 720p BluRay x264 [Dual-Audio][English DD 5.1 + Hindi 2.0] – Mafiaking – M2Tv.mkv
Format : Matroska
Format version : Version 4 / Version 2
File size : 841 MiB
Duration : 1 h 26 min
Overall bit rate : 1 353 kb/s
Movie name : One Missed Call (2008) 720p BluRay x264 [Dual-Audio][English DD 5.1 + Hindi 2.0] – Mafiaking – M2Tv
Encoded date : UTC 2016-09-30 10:23:56
Writing application : mkvmerge v7.0.0 (‘Where We Going’) 32bit built on Jun 9 2014 15:08:34
Writing library : libebml v1.3.0 + libmatroska v1.4.1

Video
ID : 1
Format : AVC
Format/Info : Advanced Video Codec
Format profile : High@L3.1
Format settings, CABAC : Yes
Format settings, ReFrames : 3 frames
Codec ID : V_MPEG4/ISO/AVC
Duration : 1 h 26 min
Bit rate : 1 000 kb/s
Width : 1 280 pixels
Height : 720 pixels
Display aspect ratio : 16:9
Frame rate mode : Constant
Frame rate : 23.976 (24000/1001) FPS
Color space : YUV
Chroma subsampling : 4:2:0
Bit depth : 8 bits
Scan type : Progressive
Bits/(Pixel*Frame) : 0.045
Stream size : 621 MiB (74%)
Title : Mafiaking
Language : English
Default : Yes
Forced : No

Audio #1
ID : 2
Format : AC-3
Format/Info : Audio Coding 3
Mode extension : CM (complete main)
Format settings, Endianness : Big
Codec ID : A_AC3
Duration : 1 h 26 min
Bit rate mode : Constant
Bit rate : 128 kb/s
Channel(s) : 2 channels
Channel positions : Front: L R
Sampling rate : 48.0 kHz
Frame rate : 31.250 FPS (1536 spf)
Compression mode : Lossy
Stream size : 79.5 MiB (9%)
Title : Mafiaking
Language : Hindi
Default : Yes
Forced : No

Audio #2
ID : 3
Format : AC-3
Format/Info : Audio Coding 3
Mode extension : CM (complete main)
Format settings, Endianness : Big
Codec ID : A_AC3
Duration : 1 h 26 min
Bit rate mode : Constant
Bit rate : 224 kb/s
Channel(s) : 6 channels
Channel positions : Front: L C R, Side: L R, LFE
Sampling rate : 48.0 kHz
Frame rate : 31.250 FPS (1536 spf)
Compression mode : Lossy
Stream size : 139 MiB (17%)
Title : Mafiaking
Language : English
Default : No
Forced : No

 80758be193e3edd668b29e4b485e14e0.md.png

22dada5eed68f591454335d28c7047ed.md.png

f6ca039b02982921b38287dbac6304e6.md.png

21cdd74b7be3f41cbf9ce7ad924f985c.md.png

06849eb0690436b35b7eee58aa8da99e.md.png

3935fff3ca87a565ade30bc7da759602.md.png

7626d2c035390e9c0012b2bfe5f5232c.md.png

76b3cf3c10d1706b45db1c72817af10a.md.png

459d55edd826b6cd825f68fc025da101.md.png

No links available
No downloads available

Leave a Reply

Your email address will not be published. Required fields are marked *

Related movies

Watch Dragon ball super