ExHDMovies

Shirdi Sai (2016) Hindi Dubbed 720p Untouched WEB-HD AVC AAC – 7Star ~ 1.72 GB

720pBollywoodDual AudioSouth Dubbed

IMDB: /10 votes

Report error

Format                                   : MPEG-4
Format profile                           : Base Media / Version 2
Codec ID                                 : mp42 (isom/mp42)
File size                                : 1.72 GiB
Duration                                 : 2 h 10 min
Overall bit rate mode                    : Variable
Overall bit rate                         : 1 883 kb/sVideo
ID                                       : 1
Format                                   : AVC
Format/Info                              : Advanced Video Codec
Format profile                           : Main@L3.1
Format settings, CABAC                   : Yes
Format settings, ReFrames                : 3 frames
Codec ID                                 : avc1
Codec ID/Info                            : Advanced Video Coding
Duration                                 : 2 h 10 min
Bit rate                                 : 1 754 kb/s
Width                                    : 1 280 pixels
Height                                   : 720 pixels
Display aspect ratio                     : 16:9
Frame rate mode                          : Constant
Frame rate                               : 25.000 FPS
Color space                              : YUV
Chroma subsampling                       : 4:2:0
Bit depth                                : 8 bits
Scan type                                : Progressive
Bits/(Pixel*Frame)                       : 0.076
Stream size                              : 1.61 GiB (93%)
Title                                    : ISO Media file produced by Google Inc.
Encoded date                             : UTC 2016-09-28 10:50:28
Tagged date                              : UTC 2016-09-28 10:50:28
Color range                              : Limited

Audio
ID                                       : 2
Format                                   : AAC
Format/Info                              : Advanced Audio Codec
Format profile                           : LC
Codec ID                                 : 40
Duration                                 : 2 h 10 min
Bit rate mode                            : Variable
Bit rate                                 : 126 kb/s
Channel(s)                               : 2 channels
Channel positions                        : Front: L R
Sampling rate                            : 44.1 kHz
Frame rate                               : 43.066 FPS (1024 spf)
Compression mode                         : Lossy
Stream size                              : 118 MiB (7%)

 







 Torrable 

No links available
No downloads available

Leave a Reply

Your email address will not be published. Required fields are marked *

Related movies

Watch Dragon ball super