ExHDMovies

The Mechanic (2011) 720p Bluray X264 AC3 [Hindi 5.1 + English 5.1] ~963MB

720pDual Audio

IMDB: /10 votes

Report error

Unique ID : 257253915699950432637547698204671470360 (0xC1894D4CF8ADF12CCDC04FE26563EB18)
Complete name : The Mechanic (2011) 720p Bluray X264 AC3 [Hindi 5.1 + English 5.1] Org.mkv
Format : Matroska
Format version : Version 2
File size : 963 MiB
Duration : 1 h 32 min
Overall bit rate : 1 451 kb/s
Encoded date : UTC 2016-10-05T03:29:00Z
Writing application : HandBrake 0.10.5 2016021100
Writing library : Lavf55.12.0 / Lavf55.12.0Video

ID : 1
Format : AVC
Format/Info : Advanced Video Codec
Format profile : High@L4.1
Format settings, CABAC : Yes
Format settings, ReFrames : 5 frames
Codec ID : V_MPEG4/ISO/AVC
Duration : 1 h 32 min
Bit rate : 1 000 kb/s
Width : 1 280 pixels
Height : 534 pixels
Display aspect ratio : 2.40:1
Frame rate mode : Constant
Frame rate : 23.976 (24000/1001) FPS
Color space : YUV
Chroma subsampling : 4:2:0
Bit depth : 8 bits
Scan type : Progressive
Bits/(Pixel*Frame) : 0.061
Stream size : 646 MiB (67%)
Writing library : x264 core 142 r2479 dd79a61
Default : Yes
Forced : No
Color range : Limited
Color primaries : BT.709
Transfer characteristics : BT.709
Matrix coefficients : BT.709

Audio #1

ID : 2
Format : AC-3
Format/Info : Audio Coding 3
Mode extension : CM (complete main)
Format settings, Endianness : Big
Codec ID : A_AC3
Duration : 1 h 32 min
Bit rate mode : Constant
Bit rate : 224 kb/s
Channel(s) : 6 channels
Channel positions : Front: L C R, Side: L R, LFE
Sampling rate : 48.0 kHz
Frame rate : 31.250 FPS (1536 spf)
Compression mode : Lossy
Delay relative to video : -5 ms
Stream size : 149 MiB (15%)
Title : Surround
Language : English
Default : Yes
Forced : No

Audio #2

ID : 3
Format : AC-3
Format/Info : Audio Coding 3
Mode extension : CM (complete main)
Format settings, Endianness : Big
Codec ID : A_AC3
Duration : 1 h 32 min
Bit rate mode : Constant
Bit rate : 224 kb/s
Channel(s) : 6 channels
Channel positions : Front: L C R, Side: L R, LFE
Sampling rate : 48.0 kHz
Frame rate : 31.250 FPS (1536 spf)
Compression mode : Lossy
Delay relative to video : -5 ms
Stream size : 149 MiB (15%)
Title : Surround
Default : No
Forced : No

 

DOWNLOAD LINK

UPTOBOX

No links available
No downloads available

Leave a Reply

Your email address will not be published. Required fields are marked *

Related movies

Watch Dragon ball super