ExHDMovies

Avengers Age of Ultron [2015] Blu-Ray-720p-x264-[Dual-Audio][Eng DD5.1]Hindi DD5.1]

720pDual AudioHollywood

IMDB: /10 votes

Report error

Format                                   : Matroska
Format version                           : Version 4 / Version 2
File size                                : 1.46 GiB
Duration                                 : 2h 21mn
Overall bit rate                         : 1 478 Kbps
Movie name                               :  Bh@iyo888 @ Hon3yHDVideo
ID                                       : 1
Format                                   : AVC
Format/Info                              : Advanced Video Codec
Format profile                           : High@L4
Format settings, CABAC                   : Yes
Format settings, ReFrames                : 12 frames
Codec ID                                 : V_MPEG4/ISO/AVC
Duration                                 : 2h 21mn
Bit rate                                 : 1 080 Kbps
Width                                    : 1 280 pixels
Height                                   : 544 pixels
Display aspect ratio                     : 2.35:1
Frame rate mode                          : Constant
Frame rate                               : 23.976 fps
Color space                              : YUV
Stream size                              : 1.05 GiB (72%)
Title                                    : Bh@iyo888 @ Hon3yHD

Audio #1
ID                                       : 2
Format                                   : AC-3
Format/Info                              : Audio Coding 3
Mode extension                           : CM (complete main)
Format settings, Endianness              : Big
Codec ID                                 : A_AC3
Duration                                 : 2h 21mn
Bit rate mode                            : Constant
Bit rate                                 : 192 Kbps
Channel(s)                               : 6 channels
Channel positions                        : Front: L C R, Side: L R, LFE
Sampling rate                            : 48.0 KHz
Compression mode                         : Lossy
Stream size                              : 194 MiB (13%)
Title                                    : Bh@iyo888 @ Hon3yHD
Language                                 : Hindi
Default                                  : Yes
Forced                                   : No

Audio #2
ID                                       : 3
Format                                   : AC-3
Format/Info                              : Audio Coding 3
Mode extension                           : CM (complete main)
Format settings, Endianness              : Big
Codec ID                                 : A_AC3
Duration                                 : 2h 21mn
Bit rate mode                            : Constant
Bit rate                                 : 192 Kbps
Channel(s)                               : 6 channels
Channel positions                        : Front: L C R, Side: L R, LFE
Sampling rate                            : 48.0 KHz
Compression mode                         : Lossy
Stream size                              : 194 MiB (13%)
Title                                    : Bh@iyo888 @ Hon3yHD
Language                                 : English
Default                                  : No
Forced                                   : No

 








DOWNLOAD LINK

UPTOBOX

INDISHARE

BDUPLOAD

No links available
No downloads available

Leave a Reply

Your email address will not be published. Required fields are marked *

Related movies

Watch Dragon ball super