ExHDMovies

Lights Out 2016 720p WEB-DL Dual Audio Eng-Hindi(Line Audio) Exclusive

720pDual AudioHollywood

IMDB: /10 votes

Report error

 
Source                      : Own
Format                      : Matroska
Format version              : Version 4 / Version 2
File size                   : 766 MiB
Duration                    : 1 h 20 min
Overall bit rate mode       : Variable
Overall bit rate            : 1 323 kb/s
Movie name                  : Lights Out 2016 720p WEB-DL Dual Audio Eng-Hindi(Line Audio) x264 Aac By Sam
Encoded date                : UTC 2016-10-06 15:43:23
Writing application         : mkvmerge v8.1.0 (‘Psychedelic Postcard’) 32bit
Writing library             : libebml v1.3.1 + libmatroska v1.4.2Video
ID                          : 1
Format                      : AVC
Format/Info                 : Advanced Video Codec
Format profile              : Baseline@L3.1
Format settings, CABAC      : No
Format settings, ReFrames   : 2 frames
Format settings, GOP        : M=1, N=24
Muxing mode                 : Container profile=Baseline@3.0
Codec ID                    : V_MPEG4/ISO/AVC
Duration                    : 1 h 20 min
Bit rate mode               : Variable
Bit rate                    : 980 kb/s
Maximum bit rate            : 1 000 kb/s
Width                       : 1 280 pixels
Height                      : 532 pixels
Display aspect ratio        : 2.40:1
Frame rate mode             : Constant
Frame rate                  : 23.976 (24000/1001) FPS
Color space                 : YUV
Chroma subsampling          : 4:2:0
Bit depth                   : 8 bits
Scan type                   : Progressive
Bits/(Pixel*Frame)          : 0.060
Stream size                 : 567 MiB (74%)
Default                     : Yes
Forced                      : NoAudio #1
ID                          : 2
Format                      : AAC
Format/Info                 : Advanced Audio Codec
Format profile              : LC
Codec ID                    : A_AAC
Duration                    : 1 h 20 min
Bit rate                    : 96.0 kb/s
Channel(s)                  : 2 channels
Channel positions           : Front: L R
Sampling rate               : 44.1 kHz
Frame rate                  : 43.066 FPS (1024 spf)
Compression mode            : Lossy
Stream size                 : 55.5 MiB (7%)
Title                       : Olddilli-Line Audio
Language                    : Hindi
Default                     : Yes
Forced                      : Yes

Audio #2
ID                          : 3
Format                      : AAC
Format/Info                 : Advanced Audio Codec
Format profile              : LC
Codec ID                    : A_AAC
Duration                    : 1 h 20 min
Bit rate                    : 244 kb/s
Channel(s)                  : 6 channels
Channel positions           : Front: L C R, Side: L R, LFE
Sampling rate               : 48.0 kHz
Frame rate                  : 46.875 FPS (1024 spf)
Compression mode            : Lossy
Stream size                 : 141 MiB (18%)
Title                       : Olddilli
Language                    : English
Default                     : No
Forced                      : No

Hindi(Line Audio) 


SAMPLE


 

DOWNLOAD LINK

UPTOBOX

No links available
No downloads available

Leave a Reply

Your email address will not be published. Required fields are marked *

Related movies

Watch Dragon ball super