ExHDMovies

Flying Jatt (2016) 720p DesiSCR x264 AC3 5.1 – DDR [1.8 GB]

Uncategorized

IMDB: /10 votes

Report error

 
 Flying Jatt (2016) 720p DesiSCR x264 AC3 5.1 – DDR [1.8 GB]
  :info:Specs:

Source: DesiSCR @ ICTV

Format : Matroska
File size : 1.78 GiB
Duration : 2 h 28 min
Overall bit rate : 1 720 kb/s

Video
Format : AVC
Format/Info : Advanced Video Codec
Format profile : High@L4.1
Format settings, CABAC : Yes
Format settings, ReFrames : 12 frames
Codec ID : V_MPEG4/ISO/AVC
Duration : 2 h 28 min
Bit rate : 1 270 kb/s
Width : 1 280 pixels
Height : 544 pixels
Display aspect ratio : 2.35:1
Frame rate mode : Constant
Frame rate : 23.976 (24000/1001) FPS
Color space : YUV
Chroma subsampling : 4:2:0
Bit depth : 8 bits
Scan type : Progressive
Bits/(Pixel*Frame) : 0.076
Stream size : 1.32 GiB (74%)
Language : English
Default : Yes
Forced : No
Color range : Limited
Color primaries : BT.709
Transfer characteristics : BT.709
Matrix coefficients : BT.709

Audio
ID : 2
Format : AC-3
Format/Info : Audio Coding 3
Mode extension : CM (complete main)
Format settings, Endianness : Big
Codec ID : A_AC3
Duration : 2 h 28 min
Bit rate mode : Constant
Bit rate : 448 kb/s
Channel(s) : 6 channels
Channel positions : Front: L C R, Side: L R, LFE
Sampling rate : 48.0 kHz
Frame rate : 31.250 FPS (1536 spf)
Compression mode : Lossy
Delay relative to video : 23 ms
Stream size : 476 MiB (26%)
Language : Hindi
Default : Yes
Forced : No

 

*
*
*
*
MULTIUP
*
JHEBERG
*
GO4UP 
No links available
No downloads available

Leave a Reply

Your email address will not be published. Required fields are marked *

Related movies

Watch Dragon ball super