ExHDMovies

The Jungle Book (2016) 720p BluRay x264[Dual-Audio][English DD 5.1 + Hindi DD 5.1] – Mafiaking – M2Tv

720pDual AudioHollywood

IMDB: /10 votes

Report error

 
Original BD50 6 Channel Hindi Audio.
 Ratings: 7.7/10

Genere: Adventure, Drama, Family

General
Unique ID : 221272858770425460071372270429307320519 (0xA6779A3ABA481D3999F3D997B87AB8C7)
Complete name : The Jungle Book (2016) 720p BluRay x264[Dual-Audio][EnglishDD5.1+HindiDD5.1] – Mafiaking – M2Tv – ExClusive.mkv
Format : Matroska
Format version : Version 4 / Version 2
File size : 1.03 GiB
Duration : 1 h 45 min
Overall bit rate : 1 399 kb/s
Movie name : The Jungle Book (2016) 720p BluRay x264[Dual-Audio][EnglishDD5.1+HindiDD5.1] – Mafiaking – M2Tv – ExClusive
Encoded date : UTC 2016-08-28 04:55:03
Writing application : mkvmerge v7.0.0 (‘Where We Going’) 32bit built on Jun 9 2014 15:08:34
Writing library : libebml v1.3.0 + libmatroska v1.4.1

Video
ID : 1
Format : AVC
Format/Info : Advanced Video Codec
Format profile : High@L3.1
Format settings, CABAC : Yes
Format settings, ReFrames : 3 frames
Codec ID : V_MPEG4/ISO/AVC
Duration : 1 h 45 min
Bit rate : 950 kb/s
Width : 1 280 pixels
Height : 688 pixels
Display aspect ratio : 1.85:1
Frame rate mode : Constant
Frame rate : 23.976 (24000/1001) FPS
Color space : YUV
Chroma subsampling : 4:2:0
Bit depth : 8 bits
Scan type : Progressive
Bits/(Pixel*Frame) : 0.045
Stream size : 719 MiB (68%)
Title : Mafiaking
Language : English
Default : Yes
Forced : No

Audio #1
ID : 2
Format : AC-3
Format/Info : Audio Coding 3
Mode extension : CM (complete main)
Format settings, Endianness : Big
Codec ID : A_AC3
Duration : 1 h 45 min
Bit rate mode : Constant
Bit rate : 224 kb/s
Channel(s) : 6 channels
Channel positions : Front: L C R, Side: L R, LFE
Sampling rate : 48.0 kHz
Frame rate : 31.250 FPS (1536 spf)
Compression mode : Lossy
Stream size : 170 MiB (16%)
Title : Mafiaking
Language : Hindi
Default : Yes
Forced : No

Audio #2
ID : 3
Format : AC-3
Format/Info : Audio Coding 3
Mode extension : CM (complete main)
Format settings, Endianness : Big
Codec ID : A_AC3
Duration : 1 h 45 min
Bit rate mode : Constant
Bit rate : 224 kb/s
Channel(s) : 6 channels
Channel positions : Front: L C R, Side: L R, LFE
Sampling rate : 48.0 kHz
Frame rate : 31.250 FPS (1536 spf)
Compression mode : Lossy
Stream size : 170 MiB (16%)
Title : Mafiaking
Language : English
Default : No
Forced : No


Sample


 




*
*
*
*
MULTIUP
*
*
No links available
No downloads available

Leave a Reply

Your email address will not be published. Required fields are marked *

Related movies

Watch Dragon ball super