ExHDMovies

Inferno 2016 HDTS English x264 Download Direct

Hollywood

IMDB: /10 votes

Report error

700ad429001bbc815e3737e5dd00bf56.md.jpg

http://www.imdb.com/title/tt3062096/

When Robert Langdon wakes up in an Italian hospital with amnesia, he teams up with Dr. Sienna Brooks, and together they must race across Europe against the clock to foil a deadly global plot.

Director: Ron Howard
Writers: Dan Brown (based on the novel by), David Koepp (screenplay)
Stars: Tom Hanks, Felicity Jones, Irrfan Khan
Genres: Action | Adventure | Crime | Drama | Mystery | Thriller
Country: USA | Japan | Turkey | Hungary
Language: English

::iNFORMATION::
Language: English
Source: SPA

Format : Matroska
File size : 1.44 GiB
Duration : 1 h 54 min
Overall bit rate mode : Variable
Overall bit rate : 1 803 kb/s

Video
ID : 1
Format : AVC
Format/Info : Advanced Video Codec
Format profile : High@L4.2
Format settings, CABAC : Yes
Format settings, ReFrames : 4 frames
Codec ID : V_MPEG4/ISO/AVC
Duration : 1 h 54 min
Bit rate mode : Variable
Bit rate : 1 609 kb/s
Maximum bit rate : 62.5 Mb/s
Width : 720 pixels
Height : 396 pixels
Display aspect ratio : 16:9
Frame rate mode : Constant
Frame rate : 29.970 (30000/1001) FPS
Color space : YUV
Chroma subsampling : 4:2:0
Bit depth : 8 bits
Scan type : Progressive
Bits/(Pixel*Frame) : 0.188
Stream size : 1.29 GiB (89%)
Default : Yes
Forced : No
Color range : Full
Color primaries : BT.709
Transfer characteristics : BT.709
Matrix coefficients : BT.709

Audio
ID : 2
Format : MPEG Audio
Format version : Version 1
Format profile : Layer 3
Codec ID : A_MPEG/L3
Codec ID/Hint : MP3
Duration : 1 h 54 min
Bit rate mode : Constant
Bit rate : 192 kb/s
Channel(s) : 2 channels
Sampling rate : 44.1 kHz
Frame rate : 38.281 FPS (1152 spf)
Compression mode : Lossy
Delay relative to video : 5 ms
Stream size : 157 MiB (11%)
Writing library : LAME3.99.5
Default : Yes
Forced : No

7b4bb7b30cb23953197c582cf8870a44.th.png 0eccffedffa67eea9bd4ed94b92800a0.th.png c6b252debcc16cfef7693e78f884c529.th.png 9232d8943a7194ad27e41334fa03b38f.th.png b20a46bcb3966dba08b39108360341b7.th.png 7be050b330d51a7b0a816f540834428c.th.png

Download Link Here

No links available
No downloads available

Leave a Reply

Your email address will not be published. Required fields are marked *

Related movies

Watch Dragon ball super