ExHDMovies

Motu Patlu King of Kings (2016) Desi PDVDRip Exclusive Download

Bollywood

IMDB: /10 votes

Report error

1cf09075d4cdbf72c02f3dd148752aa9.jpg

Quote:
General
Unique ID : 227065453152650933739939187790959421704 (0xAAD3372EB1D89BBFB5AE04D43E512908)
Complete name : E:\m,\Motu Patlu King of Kings (2016) Desi-PDVD x264 – Lesnar.mkv
Format : Matroska
Format version : Version 4 / Version 2
File size : 700 MiB
Duration : 2 h 6 min
Overall bit rate : 774 kb/s
Encoded date : UTC 2016-10-22 01:22:00
Writing application : mkvmerge v9.4.2 (‘So High’) 32bit
Writing library : libebml v1.3.4 + libmatroska v1.4.5Video
ID : 1
Format : AVC
Format/Info : Advanced Video Codec
Format profile : High@L2.1
Format settings, CABAC : Yes
Format settings, ReFrames : 4 frames
Codec ID : V_MPEG4/ISO/AVC
Duration : 2 h 6 min
Bit rate : 644 kb/s
Width : 640 pixels
Height : 256 pixels
Display aspect ratio : 2.500
Frame rate mode : Constant
Frame rate : 25.000 FPS
Color space : YUV
Chroma subsampling : 4:2:0
Bit depth : 8 bits
Scan type : Progressive
Bits/(Pixel*Frame) : 0.157
Stream size : 582 MiB (83%)
Title : Motu Patlu King of Kings (2016) Desi-PDVD x264 – Lesnar
Writing library : x264 core 148 r2638 7599210
Encoding settings : cabac=1 / ref=3 / deblock=1:-1:-1 / analyse=0x3:0x133 / me=umh / subme=6 / psy=1 / psy_rd=1.00:0.15 / mixed_ref=1 / me_range=16 / chroma_me=1 / trellis=2 / 8x8dct=1 / cqm=0 / deadzone=21,11 / fast_pskip=1 / chroma_qp_offset=-3 / threads=8 / lookahead_threads=1 / sliced_threads=0 / nr=0 / decimate=1 / interlaced=0 / bluray_compat=0 / constrained_intra=0 / bframes=3 / b_pyramid=2 / b_adapt=2 / b_bias=0 / direct=3 / weightb=1 / open_gop=0 / weightp=2 / keyint=250 / keyint_min=25 / scenecut=40 / intra_refresh=0 / rc_lookahead=40 / rc=2pass / mbtree=1 / bitrate=644 / ratetol=1.0 / qcomp=0.60 / qpmin=10 / qpmax=51 / qpstep=4 / cplxblur=20.0 / qblur=0.5 / ip_ratio=1.40 / aq=1:1.00
Default : Yes
Forced : No

Audio
ID : 2
Format : AAC
Format/Info : Advanced Audio Codec
Format profile : LC
Codec ID : A_AAC
Duration : 2 h 6 min
Bit rate : 128 kb/s
Channel(s) : 2 channels
Channel positions : Front: L R
Sampling rate : 48.0 kHz
Frame rate : 46.875 FPS (1024 spf)
Compression mode : Lossy
Delay relative to video : -80 ms
Stream size : 116 MiB (17%)
Title : Motu Patlu King of Kings (2016) Desi-PDVD x264 – Lesnar
Default : Yes
Forced : No

SCREENSHOTS
Click On Image
8a89b4b182e6f50922943b43c4ec561a.th.png 82eb34809e16b9ea2625fc5a0da49941.th.png cdbea98d47035639bb7c4649337133c1.th.png 0decc6d7e3b24627b825de4b115e1a1f.th.png 6feabc7b7af822333e53df36a2475ec2.th.png 7c39423911a9ba4b1d1a35113697afa0.th.png 65e364bf59579803c7907869804cc294.th.png df40d9a656e653cabbb72879bcc66fd8.th.png

BDupload Download Link
OR
9Xupload Download Link
OR
Uptobox Download Link

No links available
No downloads available

Leave a Reply

Your email address will not be published. Required fields are marked *

Related movies

Watch Dragon ball super