ExHDMovies

The.BFG.2016.720p.Web-Rip.Dual.Audio.(Hindi2.0[Line.Audio]-English).x264

720pDual AudioHollywood

IMDB: /10 votes

Report error

 
The.BFG.2016.720p.Web-Rip.Dual.Audio.(Hindi[Line.Audio]-English).x264.Aac. ~984MB
Source                      : OWN
Format                      : Matroska
Format version              : Version 4 / Version 2
File size                   : 984 MiB
Duration                    : 1 h 58 min
Overall bit rate            : 1 165 kb/s
Movie name                  : The BFG 2016 720p Web-Rip Dual Audio (Hindi[Line Audio]-English) x264 Aac
Encoded date                : UTC 2016-10-26 12:05:40
Writing application         : mkvmerge v8.1.0 (‘Psychedelic Postcard’) 32bit
Writing library             : libebml v1.3.1 + libmatroska v1.4.2
Video
ID                          : 1
Format                      : AVC
Format/Info                 : Advanced Video Codec
Format profile              : Main@L4.1
Format settings, CABAC      : Yes
Format settings, ReFrames   : 5 frames
Codec ID                    : V_MPEG4/ISO/AVC
Duration                    : 1 h 58 min
Bit rate                    : 1 004 kb/s
Width                       : 1 280 pixels
Height                      : 536 pixels
Display aspect ratio        : 2.40:1
Frame rate mode             : Constant
Frame rate                  : 23.976 (24000/1001) FPS
Color space                 : YUV
Chroma subsampling          : 4:2:0
Bit depth                   : 8 bits
Scan type                   : Progressive
Bits/(Pixel*Frame)          : 0.061
Stream size                 : 847 MiB (86%)
Writing library             : x264 core 142 r2479 dd79a61
Default                     : Yes
Forced                      : No
Color range                 : Limited
Color primaries             : BT.709
Transfer characteristics    : BT.709
Matrix coefficients         : BT.709Audio #1
ID                          : 2
Format                      : AAC
Format/Info                 : Advanced Audio Codec
Format profile              : LC
Codec ID                    : A_AAC
Duration                    : 1 h 58 min
Bit rate                    : 96.0 kb/s
Channel(s)                  : 2 channels
Channel positions           : Front: L R
Sampling rate               : 44.1 kHz
Frame rate                  : 43.066 FPS (1024 spf)
Compression mode            : Lossy
Stream size                 : 80.8 MiB (8%)
Title                       : Olddilli [Line Audio] Language                    : Hindi
Default                     : Yes
Forced                      : YesAudio #2
ID                          : 3
Format                      : AAC
Format/Info                 : Advanced Audio Codec
Format profile              : HE-AAC / LC
Codec ID                    : A_AAC
Duration                    : 1 h 57 min
Bit rate                    : 64.0 kb/s
Channel(s)                  : 2 channels
Channel positions           : Front: L R
Sampling rate               : 48.0 kHz / 24.0 kHz
Frame rate                  : 23.438 FPS (1024 spf)
Compression mode            : Lossy
Stream size                 : 53.9 MiB (5%)
Language                    : English
Default                     : No
Forced                      : No

 

 BDUPLOAD

DOWNLOAD LINK

UPTOBOX

INDISHARE

No links available
No downloads available

Leave a Reply

Your email address will not be published. Required fields are marked *

Related movies

Watch Dragon ball super