ExHDMovies

Trolls.2016.NEW.HDCAM.x264 – 470MB

Trolls    

PG 92 min Hollywood

6.7
IMDB: 6.7/10 1,743 votes

2 nominations.

USA

Report error

a0bf959d6c0c6c962b7da78a88edb68b.jpg Trolls.2016.NEW.HDCAM.x264 -[Team EDM] ~470MB
 
Unique ID : 251449044679466164613181786531080911102 (0xBD2B53100B7A7247A5A2546CE4FB38FE)
Complete name : D:\Trolls.2016.NEW.HDCAM.x264 – Lasner.mkv
Format : Matroska
Format version : Version 4 / Version 2
File size : 474 MiB
Duration : 1 h 22 min
Overall bit rate : 806 kb/s
Encoded date : UTC 2016-11-07 23:28:41
Writing application : mkvmerge v9.5.0 (‘Quiet Fire’) 32bit
Writing library : libebml v1.3.4 + libmatroska v1.4.5

Video
ID : 1
Format : AVC
Format/Info : Advanced Video Codec
Format profile : High@L3.1
Format settings, CABAC : Yes
Format settings, ReFrames : 4 frames
Codec ID : V_MPEG4/ISO/AVC
Duration : 1 h 22 min
Bit rate : 640 kb/s
Width : 634 pixels
Height : 336 pixels
Display aspect ratio : 1.887
Frame rate mode : Variable
Frame rate : 29.970 FPS
Color space : YUV
Chroma subsampling : 4:2:0
Bit depth : 8 bits
Scan type : Progressive
Bits/(Pixel*Frame) : 0.100
Stream size : 380 MiB (80%)
Title : Lasner

Default : Yes
Forced : No
Color range : Limited
Color primaries : BT.601 NTSC
Transfer characteristics : BT.709
Matrix coefficients : BT.601

Audio
ID : 2
Format : AAC
Format/Info : Advanced Audio Codec
Format profile : LC
Codec ID : A_AAC
Duration : 1 h 22 min
Bit rate : 158 kb/s
Channel(s) : 2 channels
Channel positions : Front: L R
Sampling rate : 48.0 kHz
Frame rate : 46.875 FPS (1024 spf)
Compression mode : Lossy
Stream size : 92.8 MiB (20%)
Title : Lasner
Language : English
Default : Yes
Forced : No

 
source: Own
 ss
7e9e96a52fbf5fd16c871a1d5e93b284.th.png 4366add3d9d90f14c4eb755849d7675d.th.png eb4508ff02a1211a8cfc8b8cae91ead4.th.png 63cbde0562cefa3728c1abe2843ad760.th.png f34e6ef2422a9600d337c7fe0f98d844.th.png 94f0bad2a7592a91ccef557dc68bc4b5.th.png cb318a6075026cc1766874b777af696e.th.png 73e78c011ed5faa335267034764dd757.th.png 242de177f1f63d6170fa02649b5f523f.th.png 6aba55f97bbfb5f23f02a47697a495ac.th.png
 
 

MultiUp

No links available
No downloads available

Leave a Reply

Your email address will not be published. Required fields are marked *

Related movies

Watch Dragon ball super