ExHDMovies

Jason Bourne 2016 720p HDRip x264 Dual-Audio[Hindi(Cleaned) 2.0][English 5.1]

Jason Bourne    

PG-13 123 min 720pDual AudioHollywood

6.8
IMDB: 6.8/10 89,425 votes

3 nominations.

UK, China, USA

Report error

 
 
Jason Bourne 2016 720p HDRip x264 Dual-Audio[Hindi(Cleaned) 2.0][English 5.1] –  1.14 GB
 
 
Format                      : Matroska
Format version              : Version 4 / Version 2
File size                   : 1.14 GiB
Duration                    : 2 h 3 min
Overall bit rate            : 1 322 kb/s
Movie name                  : Hon3yHD

Video
ID                          : 1
Format                      : AVC
Format/Info                 : Advanced Video Codec
Format profile              : High@L4.1
Format settings, CABAC      : Yes
Format settings, ReFrames   : 8 frames
Codec ID                    : V_MPEG4/ISO/AVC
Duration                    : 2 h 3 min
Bit rate                    : 1 000 kb/s
Width                       : 1 280 pixels
Height                      : 536 pixels
Display aspect ratio        : 2.40:1
Frame rate mode             : Constant
Frame rate                  : 23.976 (24000/1001) FPS
Stream size                 : 881 MiB (76%)
Title                       : Hon3yHD

Hindi audio Credits : Killer Blaze

Cleaned and synced by : W3apoN-X(R3al_Star)

Audio #1
ID                          : 2
Format                      : AAC
Format/Info                 : Advanced Audio Codec
Format profile              : LC
Codec ID                    : A_AAC
Duration                    : 2 h 3 min
Bit rate                    : 192 kb/s
Channel(s)                  : 2 channels
Channel positions           : Front: L R
Sampling rate               : 48.0 kHz
Frame rate                  : 46.875 FPS (1024 spf)
Compression mode            : Lossy
Delay relative to video     : 9 ms
Stream size                 : 169 MiB (14%)
Title                       : Hon3yHD
Language                    : Hindi
Default                     : Yes
Forced                      : Yes

Audio #2
ID                          : 3
Format                      : AAC
Format/Info                 : Advanced Audio Codec
Format profile              : LC
Codec ID                    : A_AAC
Duration                    : 2 h 3 min
Bit rate                    : 128 kb/s
Channel(s)                  : 6 channels
Channel positions           : Front: L C R, Side: L R, LFE
Sampling rate               : 48.0 kHz
Frame rate                  : 46.875 FPS (1024 spf)
Compression mode            : Lossy
Delay relative to video     : 9 ms
Stream size                 : 112 MiB (10%)
Title                       : Hon3yHD
Language                    : English
Default                     : No
Forced                      : No

Text
ID                          : 4
Format                      : UTF-8
Codec ID                    : S_TEXT/UTF8
Codec ID/Info               : UTF-8 Plain Text
Duration                    : 1 h 53 min
Bit rate                    : 36 b/s
Count of elements           : 1026
Stream size                 : 30.1 KiB (0%)
Title                       : Hon3yHD
Language                    : English
Default                     : No
Forced                      : No

 
 

Sample


 
 
 
Download:
 

IndiShare

No links available
No downloads available

Leave a Reply

Your email address will not be published. Required fields are marked *

Related movies

Watch Dragon ball super